<?xml version="1.0" standalone="no"?>
<!DOCTYPE svg PUBLIC "-//W3C//DTD SVG 1.1//EN" "http://www.w3.org/Graphics/SVG/1.1/DTD/svg11.dtd" >
<svg xmlns="http://www.w3.org/2000/svg">
<metadata>
<json>
<![CDATA[
{
	"fontFamily": "bwsicons",
	"majorVersion": 1,
	"minorVersion": 0,
	"version": "Version 1.0",
	"fontId": "bwsicons",
	"psName": "bwsicons",
	"subFamily": "Regular",
	"fullName": "bwsicons",
	"description": "Font generated by IcoMoon."
}
]]>
</json>
</metadata>
<defs>
<font id="bwsicons" horiz-adv-x="1024">
<font-face units-per-em="1024" ascent="960" descent="-64" />
<missing-glyph horiz-adv-x="1024" />
<glyph unicode="&#x20;" horiz-adv-x="512" d="" />
<glyph unicode="&#xe900;" glyph-name="Ads" data-tags="Ads" d="M572.193 927.267c16.832 9.718 38.354 3.951 48.072-12.881l335.015-580.263c9.718-16.832 3.951-38.354-12.881-48.072s-38.354-3.951-48.072 12.881l-18.718 32.574c-30.654 4.585-61.625 6.743-92.624 6.452-32.523 0.161-60.079-22.858-66.316-54.026l-1.106-7.953c-4.281-54.99-43.972-113.173-108.78-150.59-92.404-53.349-195.823-41.609-235.488 27.093-5.11 8.825-8.95 18.326-11.409 28.222-2.807 11.646-10.827 21.347-21.737 26.294-8.007 3.63-60.079-20.519-91.422-35.829 4.729-15.292-1.565-32.355-16.026-40.705-16.832-9.718-38.354-3.951-48.072 12.881l-113.908 197.295c-9.718 16.832-3.951 38.354 12.881 48.072 14.396 8.312 32.224 5.296 43.162-6.283 250.691 165.152 415.724 377.064 452.57 461.574l0.921 2.336-18.942 32.856c-9.718 16.832-3.951 38.354 12.881 48.072zM477.105 281.51c-25.308-8.4-44.866-28.711-52.302-54.319-4.359-13.828-3.011-28.825 3.744-41.655 20.361-35.267 86.786-36.611 145.182-2.896s90.445 91.913 70.083 127.179c-4.887 8.544-14.715 12.974-24.353 10.978-48.289-9.845-95.851-22.972-142.354-39.288z" />
<glyph unicode="&#xe901;" glyph-name="Captcha" data-tags="Captcha" d="M768 768c70.692 0 128-57.308 128-128v-64h64v-128h64v-64h-64v-128h-64c0-70.692-57.308-128-128-128h-512c-70.692 0-128 57.308-128 128h-64v128h-64v64h64v128h64v64c0 70.692 57.308 128 128 128h512zM576 640h-128c-106.039 0-192-85.961-192-192 0-102.252 79.931-185.834 180.719-191.674l11.281-0.326h128c106.039 0 192 85.961 192 192s-85.961 192-192 192zM416 512c17.673 0 32-14.327 32-32v-64c0-17.673-14.327-32-32-32s-32 14.327-32 32v64c0 17.673 14.327 32 32 32zM608 512c17.673 0 32-14.327 32-32v-64c0-17.673-14.327-32-32-32s-32 14.327-32 32v64c0 17.673 14.327 32 32 32z" />
<glyph unicode="&#xe902;" glyph-name="Car-Rental" data-tags="Car-Rental" d="M730.951 756c66.579 0 107.435-96.778 134.672-149.007l34.803 23.042c18.158 10.753 40.855 6.145 52.961-12.289 13.618-12.289 4.539-41.476-12.105-52.229l-36.316-23.042c16.645-16.898 40.855-50.693 40.855-125.965 1.513-82.953 1.513-165.905 1.513-248.858 0-15.362-12.105-27.651-27.237-27.651h-121.053c-15.132 0-27.237 12.289-27.237 27.651 0 10.753 0 21.506 0 33.796h-520.528c0-12.289 0-23.042 0-33.796 0-15.362-12.105-27.651-27.237-27.651h-121.053c-15.132 0-27.237 12.289-27.237 27.651 0 82.953 0 165.905 0 248.858 1.513 75.272 25.724 109.067 40.855 125.965l-36.316 23.042c-16.645 10.753-21.184 35.332-10.592 52.229 15.132 15.362 30.263 26.115 51.448 12.289l36.316-23.042c27.237 52.229 68.092 149.007 134.672 149.007h438.818zM605.358 262.893c7.566 0 13.618 4.608 13.618 12.289v46.085c0 6.145-6.053 12.289-13.618 12.289h-187.632c-7.566 0-13.618-6.145-13.618-12.289v-46.085c0-7.681 6.053-12.289 13.618-12.289h187.632zM811.148 600.848c-16.645 32.259-31.776 66.055-48.421 98.314h-502.37c-16.645-32.259-33.29-66.055-48.421-98.314 196.711-33.796 402.502-33.796 599.213 0zM131.738 401.147c55.987-10.753 110.461-18.434 163.422-30.723 13.618-6.145 22.697-18.434 30.263-32.259 3.026-6.145 3.026-15.362 1.513-24.579-52.961 7.681-104.408 16.898-155.856 26.115-16.645 6.145-30.263 18.434-39.342 35.332-1.513 12.289-1.513 21.506 0 26.115zM889.833 401.147c-54.474-10.753-108.948-18.434-163.422-30.723-12.105-6.145-22.697-18.434-30.263-32.259-1.513-6.145-1.513-15.362 0-24.579 51.448 7.681 104.408 16.898 155.856 26.115 16.645 6.145 30.263 18.434 39.342 35.332 1.513 12.289 1.513 21.506-1.513 26.115z" />
<glyph unicode="&#xe903;" glyph-name="Contact-Form-Multi" data-tags="Contact-Form-Multi" d="M690.438 449.429v-314.634c0-20.47-12.701-34.799-32.387-37.46l-6.813-0.447h-548.8c-21.168 0-35.986 12.282-38.737 31.319l-0.463 6.588v314.634l294-159.212c9.147-4.423 22.649-5.16 33.247-2.211l5.953 2.211 294 159.212zM741.992 700.902c29.415 0.062 53.312-23.733 53.374-53.149v-368.617c0-29.415-23.846-53.261-53.261-53.261h-22.329l-0.029 362.066c-0.004 20.59-16.696 37.28-37.286 37.282l-474.24-0.007v22.329c0 29.414 23.848 53.259 53.261 53.266l480.509 0.090zM848.515 807.425c29.415 0.062 53.312-23.733 53.374-53.149v-368.617c0-29.415-23.846-53.261-53.261-53.261h-22.329l-0.029 362.066c-0.004 20.59-16.696 37.28-37.286 37.282l-474.24-0.007v22.329c0 29.414 23.848 53.259 53.261 53.266l480.509 0.090zM651.238 589.688c21.168 0 35.986-12.282 38.737-31.319l0.463-6.588v-56.862l-313.6-166.794-313.6 170.585v53.071c0 20.47 12.701 34.799 32.387 37.46l6.813 0.447h548.8z" />
<glyph unicode="&#xe904;" glyph-name="Contact-Form-to-DB" data-tags="Contact-Form-to-DB" d="M751.016 168.431v-46.644c0-16.284-9.68-27.683-24.684-29.8l-5.193-0.356h-418.277c-16.134 0-27.427 9.771-29.524 24.915l-0.353 5.241v46.644h478.031zM793.6 278.4v-46.644c0-16.284-11.405-27.683-29.082-29.8l-6.118-0.356h-492.8c-19.008 0-32.314 9.771-34.785 24.915l-0.415 5.241v46.644h563.2zM825.6 664.11v-314.634c0-20.47-12.701-34.799-32.387-37.46l-6.813-0.447h-548.8c-21.168 0-35.986 12.282-38.737 31.319l-0.463 6.588v314.634l294-159.212c9.147-4.423 22.649-5.16 33.247-2.211l5.953 2.211 294 159.212zM786.4 804.369c21.168 0 35.986-12.282 38.737-31.319l0.463-6.588v-56.862l-313.6-166.794-313.6 170.585v53.071c0 20.47 12.701 34.799 32.387 37.46l6.813 0.447h548.8z" />
<glyph unicode="&#xe905;" glyph-name="Contact-Form" data-tags="Contact-Form" d="M896 577.969v-385.266c0-27.851-19.2-46.418-48-46.418v0h-672c-28.8 0-48 18.567-48 46.418v0 385.266l360-194.954c13.44-6.498 34.56-6.498 48 0v0l360 194.954zM848 749.714c28.8 0 48-18.567 48-46.418v0-69.626l-384-204.237-384 208.879v64.985c0 27.851 19.2 46.418 48 46.418v0z" />
<glyph unicode="&#xe906;" glyph-name="Custom-Admin-Page" data-tags="Custom-Admin-Page" d="M836.228 524.467c22.758-0.91 40.054-9.103 48.247-17.296 20.027 0 33.682-12.744 39.144-30.951 10.924-35.502 2.731-71.915 2.731-71.915 14.565 2.731 10.924-28.22 7.283-37.323-6.372-17.296-16.386-22.758-16.386-22.758-5.462-41.875-24.579-54.619-24.579-54.619v0l1.821-44.606c0 0 11.834-6.372 61.902-25.489 29.13-10.924 48.247-22.758 60.081-39.144 5.462-7.283 7.283-25.489 7.283-20.027l-0.010-0.19 0.064-7.909c0.283-23.261 1.286-37.105-6.962-39.038l-3.106-0.2h-348.652c-19.117 0-14.565 45.516-15.475 48.247-0.91 6.372 1.821 12.744 7.283 20.027 11.834 16.386 30.951 28.22 60.081 39.144 50.068 19.117 61.902 25.489 61.902 25.489v0l0.91 43.695c0 0-19.117 13.655-24.579 54.619 0 0-10.014 5.462-16.386 22.758-3.641 9.103-7.283 40.054 7.283 37.323 0 0-13.655 27.31 5.462 71.915 14.565 35.502 39.144 46.426 84.66 48.247zM826.214 782.997c28.22 0 53.709-25.489 53.709-53.709v0-161.127c-22.758 10.014-20.937 12.744-53.709 0v0 53.709h-644.505v-429.671h429.67c-13.655-34.592 0-53.709 0-53.709v0h-429.67c-28.22 0-53.709 25.489-53.709 53.709v0 537.088c0 28.22 25.489 53.709 53.709 53.709v0zM450.252 729.288h-53.709v-53.709h53.709v53.709zM342.835 729.288h-53.709v-53.709h53.709v53.709zM235.418 729.288h-53.709v-53.709h53.709v53.709z" />
<glyph unicode="&#xe908;" glyph-name="Custom-Search" data-tags="Custom-Search" d="M451.255 832.064c178.896 0 322.635-146.586 322.635-327.153 0-66.014-18.497-126.033-54.327-179.24l-7.046-9.831 131.78-136.192c16.97-16.97 19.94-41.147 8.909-60.64l-4.195-6.308-4.714-5.351c-9.503-9.503-24.314-15.427-36.149-15.427-9.862 0-21.792 4.114-30.994 10.985l-5.155 4.442-131.61 131.562-7.401-5.735c-40.829-29.505-91.67-48.047-146.422-53.632l-18.387-1.379-16.925-0.407c-179.723 0-327.153 147.43-327.153 327.153s147.43 327.153 327.153 327.153zM451.255 728.911c-122.959 0-224-101.041-224-224 0-122.065 100.123-219.482 224-219.482s224 97.417 224 219.482c0 122.959-101.041 224-224 224z" />
<glyph unicode="&#xe90a;" glyph-name="Donate" data-tags="Donate" d="M512 887.385c241.231 0 439.385-198.154 439.385-439.385s-198.154-437.662-439.385-437.662c-241.231 0-439.385 194.708-439.385 437.662s198.154 439.385 439.385 439.385zM530.954 752.985h-48.246c-10.338 0-18.954-8.615-18.954-18.954v0-48.246c-62.031-17.231-101.662-65.477-101.662-129.231 0-68.923 46.523-120.615 139.569-153.354 65.477-22.4 70.646-39.631 72.369-60.308 0-13.785 0-48.246-60.308-48.246-31.015 0-63.754 20.677-84.431 36.185-8.615 6.892-20.677 6.892-29.292-1.723v0l-32.738-34.462c-8.615-8.615-8.615-24.123 1.723-32.738 18.954-15.508 53.415-39.631 94.769-51.692v0-48.246c0-10.338 8.615-18.954 18.954-18.954v0h48.246c10.338 0 18.954 8.615 18.954 18.954v0 44.8c70.646 12.062 115.446 63.754 115.446 136.123 0 101.662-91.323 134.4-130.954 148.185-79.262 27.569-79.262 55.138-79.262 67.2 0 39.631 46.523 44.8 60.308 44.8 22.4 1.723 43.077-10.338 58.585-18.954 8.615-5.169 20.677-5.169 27.569 3.446v0l32.738 34.462c8.615 8.615 6.892 24.123-3.446 32.738-17.231 12.062-46.523 29.292-80.985 36.185v0 43.077c0 10.338-8.615 18.954-18.954 18.954v0z" />
<glyph unicode="&#xe90c;" glyph-name="Error-Low-Viewer" data-tags="Error-Low-Viewer" d="M530.824 875.807v-318.289h297.754v-537.326h-636.578v855.615h338.824zM484.62 370.995c-47.059 0-77.005-35.936-77.005-82.995 0-45.348 27.38-80.428 74.439-80.428 46.203 0 77.861 30.802 77.861 82.995 0 43.636-26.524 80.428-75.294 80.428zM674.567 370.139c-51.337 0-89.84-29.947-90.695-82.995 0-23.102 7.701-43.636 22.246-57.326 14.545-14.545 35.080-21.39 64.171-21.39 21.39 0 41.925 5.134 53.048 8.556v0 84.706h-59.037v-28.235h24.813v-33.369c-3.422-1.711-9.412-2.567-17.968-2.567-29.091 0-49.626 19.679-49.626 52.193 0 34.225 22.246 51.337 52.193 51.337 17.112 0 28.235-3.422 36.791-6.845v0l7.701 28.235c-7.701 3.422-23.102 7.701-43.636 7.701zM331.465 373.561h-31.658v-160h95.829v32.513h-64.171v127.487zM483.764 342.759c24.813 0 38.503-24.813 38.503-53.048 0-30.802-13.69-53.904-37.647-53.904s-38.502 22.246-38.502 53.048c0 30.802 13.689 53.904 37.646 53.904zM589.861 875.807l242.139-259.251h-242.139v259.251z" />
<glyph unicode="&#xe90d;" glyph-name="Like-Share" data-tags="Like-Share" d="M486.596 864c50.181 0 83.635-22 83.635-88v0-176h179.816c33.454 0 66.908-13.2 87.817-44 20.909-22 29.272-57.2 25.091-92.4v0l-33.454-202.4c-8.364-57.2-54.363-101.2-108.726-101.2v0h-359.632v352c4.182 0 100.362 330 100.362 330 0 13.2 12.545 22 25.091 22zM260.571 512v-352h-100.571v352h100.571z" />
<glyph unicode="&#xe90e;" glyph-name="featured-posts" data-tags="featured-posts" d="M128 576h256v-64h-256v64zM128 448h128v-64h-128v64zM128 320h128v-64h-128v64zM128 704h512v-64h-512v64zM128 832h512v-64h-512v64zM768 626.432v234.496c0 54.592-43.136 99.072-96.128 99.072h-575.744c-52.992 0-96.128-44.48-96.128-99.072v-697.792c0-54.656 43.136-99.136 96.128-99.136h304.384c64.576-78.080 162.176-127.872 271.424-127.872 194.432 0 352 157.568 352 351.936 0.064 161.024-108.288 296.512-255.936 338.368zM320 288.064c0-57.728 14.144-112 38.784-160.064h-262.656c-16.96 0-32.128 15.104-32.128 33.728v699.2c0 18.624 15.168 35.072 32.128 35.072h575.68c17.024 0 32.192-16.448 32.192-35.072v-222.528c-10.56 0.96-21.184 1.6-32 1.6-194.432 0-352-157.568-352-351.936zM917.76 317.504l-109.376-97.408 36.48-148.224c8.128-25.408-20.288-50.752-44.544-33.856l-125.632 80.448-125.568-80.448c-20.224-16.96-52.672 4.224-44.544 33.856l32.448 148.224-109.44 97.408c-20.224 16.96-12.16 55.040 12.16 55.040l145.856 12.736 56.704 139.712c12.16 25.472 44.608 25.472 56.768 0l56.704-139.712 145.856-12.736c24.256 0 36.416-38.080 16.128-55.040z" />
<glyph unicode="&#xe910;" glyph-name="Gallery" data-tags="Gallery" d="M424 316c24.288 0 44-19.712 44-44v-132c0-24.288-19.712-44-44-44h-220c-24.288 0-44 19.712-44 44v132c0 24.288 19.712 44 44 44h220zM820 448c24.288 0 44-19.712 44-44v-264c0-24.288-19.712-44-44-44h-220c-24.288 0-44 19.712-44 44v264c0 24.288 19.712 44 44 44h220zM424 800c24.288 0 44-19.712 44-44v-308c0-24.288-19.712-44-44-44h-220c-24.288 0-44 19.712-44 44v308c0 24.288 19.712 44 44 44h220zM820 800c24.288 0 44-19.712 44-44v-176c0-24.288-19.712-44-44-44h-220c-24.288 0-44 19.712-44 44v176c0 24.288 19.712 44 44 44h220z" />
<glyph unicode="&#xe911;" glyph-name="Analytics" data-tags="Analytics" d="M896 784v-672h-192v672h192zM608 592v-480h-192v480h192zM320 400v-288h-192v288h192z" />
<glyph unicode="&#xe912;" glyph-name="reCaptcha" data-tags="reCaptcha" d="M758.4 800c58.321 0 105.6-47.279 105.6-105.6v-492.8c0-58.321-47.279-105.6-105.6-105.6h-492.8c-58.321 0-105.6 47.279-105.6 105.6v492.8c0 58.321 47.279 105.6 105.6 105.6h492.8zM680.96 606.4l-232.32-168.96-105.6 63.36-42.24-42.24 147.84-168.96 274.56 274.56-42.24 42.24z" />
<glyph unicode="&#xe913;" glyph-name="Maps" data-tags="Maps" d="M499.2 832c-148.48 0-307.2-112.64-307.2-307.2 0-189.44 307.2-460.8 307.2-460.8s307.2 271.36 307.2 460.8c0 194.56-158.72 307.2-307.2 307.2zM499.2 422.4c-56.32 0-102.4 46.080-102.4 102.4s46.080 102.4 102.4 102.4c56.32 0 102.4-46.080 102.4-102.4s-46.080-102.4-102.4-102.4z" />
<glyph unicode="&#xe914;" glyph-name="Google-Plus" data-tags="Google-Plus" d="M350.125 160c40.833 0 78.167 6.909 112 20.726s62.708 33.247 86.625 58.291c23.917 25.043 42.438 54.837 55.562 89.379s19.688 72.252 19.688 113.127c0 8.060-0.438 16.12-1.312 24.18s-1.896 16.12-3.063 24.18h-269.5v-99.31h161c-5.833-39.724-24.792-70.381-56.875-91.97s-66.792-32.384-104.125-32.384c-25.083 0-48.417 4.894-70 14.681s-40.396 22.885-56.437 39.292c-16.042 16.408-28.729 35.694-38.063 57.859s-14 45.625-14 70.381c0 24.756 4.667 48.072 14 69.949s22.021 41.163 38.063 57.859c16.042 16.696 34.854 29.793 56.437 39.292s44.917 14.249 70 14.249c20.417 0 40.688-3.598 60.813-10.795s37.771-18.279 52.938-33.247l77 75.13c-26.25 25.331-55.563 44.186-87.938 56.564s-66.646 18.567-102.813 18.567c-39.667 0-76.854-7.484-111.562-22.453s-65.042-35.55-91-61.745c-25.958-26.195-46.375-56.708-61.25-91.538s-22.312-72.108-22.312-111.832c0-39.724 7.438-77.145 22.312-112.264s35.292-65.775 61.25-91.97c25.958-26.195 56.292-46.777 91-61.745s71.896-22.453 111.562-22.453zM885.625 325.805v73.403h74.375v73.403h-74.375v74.267h-74.375v-74.267h-75.25v-73.403h75.25v-73.403h74.375z" />
<glyph unicode="&#xe915;" glyph-name="Shortlink" data-tags="Shortlink" d="M252.8 529.6c19.2 19.2 48 19.2 67.2 0s19.2-48 0-67.2v0l-52.8-57.6c-28.8-24-43.2-62.4-43.2-100.8s14.4-76.8 43.2-105.6c52.8-52.8 148.8-52.8 201.6 0v0l57.6 57.6c19.2 19.2 48 24 67.2 4.8s19.2-48 0-67.2v0l-57.6-57.6c-43.2-48-105.6-72-168-72s-124.8 24-168 72c-48 43.2-72 105.6-72 168s24 124.8 72 168v0zM579.2 582.4c19.2 19.2 48 19.2 67.2 0s19.2-48 0-67.2v0l-201.6-201.6c-9.6-9.6-24-14.4-33.6-14.4s-24 4.8-33.6 14.4c-19.2 19.2-19.2 48 0 67.2v0zM656 832c62.4 0 124.8-24 168-72 48-43.2 72-105.6 72-168s-24-124.8-67.2-168v0l-57.6-57.6c-9.6-9.6-24-14.4-33.6-14.4s-24 4.8-33.6 14.4c-19.2 19.2-19.2 48 0 67.2v0l52.8 57.6c28.8 24 43.2 62.4 43.2 100.8s-14.4 76.8-43.2 105.6c-52.8 52.8-148.8 52.8-201.6 0v0l-57.6-57.6c-19.2-19.2-48-19.2-67.2 0s-19.2 48 0 67.2v0l57.6 52.8c43.2 48 105.6 72 168 72z" />
<glyph unicode="&#xe916;" glyph-name="Sitemap" data-tags="Sitemap" d="M747.219 474.709v-112.829h-111.873v112.829h-104.223v112.829h103.267v225.657h-244.781v-225.657h104.223v-112.829h-104.223v-113.785h-112.829v113.785h-244.781v-263.904h244.781v113.785h112.829v-113.785h245.737v112.829h111.873v-112.829h244.781v263.904z" />
<glyph unicode="&#xe917;" glyph-name="Htaccess" data-tags="Htaccess" d="M754.258 516.596v143.83c0 132.766-108.426 203.574-241.191 203.574-132.77 0-238.983-73.021-238.983-203.574v-146.043c-44.255-2.213-88.511-24.34-88.511-70.809v-327.489c0-46.468 37.617-84.085 84.085-84.085h486.813c46.468 0 81.872 37.617 81.872 84.085v327.489c2.213 44.255-39.83 70.809-84.085 73.021zM590.514 173.617c-2.213-4.426-6.638-6.638-11.064-6.638h-130.558c-4.426 0-8.851 2.213-11.064 6.638s-2.213 8.851-2.213 13.277l30.979 81.872c-17.702 13.277-26.553 35.404-26.553 55.319 0 39.83 33.191 73.021 73.026 73.021 39.83 0 73.021-33.191 73.021-73.021 0-22.128-11.064-42.043-26.553-55.319l30.979-81.872c4.426-4.426 2.213-11.064 0-13.277zM665.748 512.17h-303.153v146.043c0 66.383 88.511 117.277 154.898 117.277 66.383 0 150.468-50.894 150.468-117.277v-146.043h-2.213z" />
<glyph unicode="&#xe918;" glyph-name="Job-Board" data-tags="Job-Board" d="M896 514.397v-358.701c0-36.735-24.961-66.978-57.026-70.847l-6.974-0.418h-640c-32.99 0-60.15 27.794-63.624 63.5l-0.376 7.765v358.701l31.446-8.609c231.151-60.388 473.957-60.388 705.108 0l31.446 8.609zM598.875 811.57c53.019 0 96-42.981 96-96v0l-0.027-60.992 137.152-0.024c32.99 0 60.15-27.794 63.624-63.5l0.376-7.765v-19.088l-31.446-8.609c-76.091-19.879-153.446-33.214-231.231-40.005-10.69-4.044-22.306-6.298-34.447-6.298v0h-173.75c-12.142 0-23.757 2.254-34.45 6.367-77.783 6.723-155.137 20.058-231.228 39.937l-31.446 8.609v19.088c0 36.735 24.961 66.978 57.026 70.847l6.974 0.418 137.088 0.024 0.037 60.992c0 49.901 38.073 90.909 86.755 95.561l9.245 0.439zM598.875 747.57h-173.75c-17.673 0-32-14.327-32-32v0l-0.037-60.992h237.76l0.027 60.992c0 15.709-11.32 28.775-26.248 31.484l-5.752 0.516z" />
<glyph unicode="&#xe919;" glyph-name="latest-posts" data-tags="latest-posts" d="M128 576.064h256.032v-64h-256.032v64zM128 448.064h128v-64h-128v64zM128 320.064h128v-64h-128v64zM128 704.096h512.064v-64h-512.064v64zM128 832.096h512.064v-64h-512.064v64zM768.096 626.528v234.528c0 54.656-43.136 99.072-96.128 99.072h-575.808c-52.992 0-96.128-44.48-96.128-99.072v-697.952c0-54.656 43.136-99.072 96.128-99.072h304.416c64.576-78.080 162.208-127.904 271.456-127.904 194.464 0 352.032 157.6 352.032 351.968 0.064 161.056-108.288 296.544-255.968 338.4zM96.128 128.032c-16.96 0-32.128 15.104-32.128 33.728v699.296c0 18.624 15.168 35.072 32.128 35.072h575.744c17.024 0 32.192-16.448 32.192-35.072v-222.56c-10.56 0.96-21.184 1.6-32 1.6-194.464 0-352.032-157.6-352.032-351.968 0-57.728 14.144-112 38.784-160.096h-262.688zM768.096 255.968h-128v256.032h64v-192.032h64v-64z" />
<glyph unicode="&#xe91a;" glyph-name="Limit-Attempts" data-tags="Limit-Attempts" d="M522.762 861.982c102.234-59.188 196.398-86.092 312.084-94.163 10.762-2.69 18.833-10.762 18.833-24.213v-295.942c0-239.444-158.732-295.942-328.226-411.628-8.071-5.381-18.833-5.381-24.213 0-169.494 115.686-330.917 172.184-330.917 411.628v295.942c0 13.452 8.071 21.523 21.523 24.213 112.996 8.071 209.85 34.975 309.394 94.163 8.071 2.69 16.142 2.69 21.523 0zM510.623 572.245c-43.013 0-78.853-35.84-78.853-78.848 0-21.504 9.557-45.397 28.672-59.733v0l-33.451-88.405c0-4.779 0-9.557 2.389-14.336s7.168-7.168 11.947-7.168v0h140.975c4.779 0 9.557 2.389 11.947 7.168 2.389 2.389 4.779 9.557 0 14.336v0l-33.451 88.405c16.725 14.336 28.672 35.84 28.672 59.733 0 43.008-35.84 78.848-78.848 78.848z" />
<glyph unicode="&#xe91b;" glyph-name="Linked" data-tags="Linked" d="M512 910.625c78.77 0 142.625-63.855 142.625-142.625l-0.005 1.909c79.751-35.386 143.904-99.538 179.29-179.29 77.869-1.008 140.716-64.475 140.716-142.62 0-78.77-63.855-142.625-142.625-142.625l1.909 0.005c-35.386-79.751-99.538-143.904-179.29-179.29-1.008-77.869-64.475-140.716-142.62-140.716-78.77 0-142.625 63.855-142.625 142.625l0.005-1.909c-79.751 35.386-143.904 99.538-179.29 179.29-77.869 1.008-140.716 64.475-140.716 142.62 0 78.77 63.855 142.625 142.625 142.625l-1.909-0.005c35.386 79.751 99.538 143.904 179.29 179.29 1.008 77.869 64.475 140.716 142.62 140.716zM640.336 705.896l-2.076-4.292c-23.885-45.327-71.464-76.229-126.26-76.229-56.471 0-105.276 32.819-128.383 80.424-55.959-27.827-101.589-73.457-129.513-129.463 47.702-23.061 80.521-71.866 80.521-128.336s-32.819-105.276-80.424-128.383c27.827-55.959 73.457-101.589 129.463-129.513 23.061 47.702 71.866 80.521 128.336 80.521s105.276-32.819 128.383-80.424c55.959 27.827 101.589 73.457 129.513 129.463-47.702 23.061-80.521 71.866-80.521 128.336s32.819 105.276 80.424 128.383c-27.827 55.959-73.457 101.589-129.463 129.513z" />
<glyph unicode="&#xe91c;" glyph-name="Multilanguage" data-tags="Multilanguage" d="M656.768 160.896l104-8.32-35.776-105.664-24.96 40.768c-40.768-24.96-89.024-43.264-133.12-50.752-14.144-2.496-31.616-5.824-46.592-5.824v0h-41.6c-53.248 0-151.424 31.616-194.688 63.232-5.824 4.16-7.488 8.321-7.488 14.145 0 9.984 7.488 17.472 16.64 17.472 4.16 0 10.816-3.328 27.456-12.48 4.16-2.496 8.32-4.993 9.984-5.825 39.104-19.136 102.336-41.6 153.92-41.6 61.568 0 103.168 8.32 157.248 31.617 9.984 4.16 19.968 9.984 29.952 15.808v0l8.32 4.992-23.296 42.431zM809.856 928c5.824 0 9.984-4.16 9.984-10.816v0-207.168l73.216-23.296v-536.64c-355.383 113.568-381.485 121.68-383.4 122.259-8.472-3.283-363.736-123.091-368.728-123.091-4.16 0-7.488 2.496-9.152 6.656v0l-0.832 1.664v534.976c0 1.664 0.832 4.16 1.664 4.992 3.328 4.16 6.657 4.992 9.985 5.824 1.664 0.832 31.616 10.816 74.048 24.96v0 190.528l277.056-98.176c3.328 0.832 312 107.328 316.16 107.328zM493.696 784.896l-327.808-115.648v-472.576l327.808 108.16v480.064zM418.816 595.2l2.496-7.488c0.832-4.16 0-16.64-0.832-19.136 0-1.664-1.664-4.16-18.304-38.272-4.992-9.152-8.32-17.472-9.984-19.968 0-0.832-11.648-24.128-33.28-58.24 8.32-3.328 18.304-7.488 23.296-9.984 8.32-4.16 65.728-28.288 69.056-29.12 9.984-3.328 13.312-33.28 12.48-37.44-0.832-3.328-3.328-6.656-9.152-6.656-4.992 0-12.48 2.496-27.456 9.152-2.496 0.832-4.16 1.664-5.824 2.496-7.488 3.328-37.44 19.968-44.928 24.96-4.16 2.496-11.648 8.32-19.968 14.976v0l-13.312 9.984c-20.8-31.616-41.6-59.904-62.4-84.032v0l-4.992-5.824c-16.64-19.136-34.944-40.768-49.088-49.92-4.992-3.328-19.968-3.328-19.968-3.328-3.328 0-4.992 0-7.488 2.496v0l-11.647 5.824 9.984 7.488c4.992 4.16 19.968 21.632 29.952 33.28 3.328 4.16 6.656 8.32 9.152 10.816 12.48 14.144 70.72 95.68 80.704 113.984 8.32 15.808 26.624 52.416 36.608 72.384-8.32-2.496-19.968-6.656-34.944-11.648v0l-3.328-0.832c-4.16-1.664-10.816-3.328-17.472-4.992-5.824-1.664-13.312-3.328-17.472-4.992 0.832-2.496 0.832-4.992-0.832-7.488-3.328-6.656-17.472-10.816-20.8-11.648-4.16-1.664-14.976-3.328-26.624 0-8.32 2.496-15.808 10.816-18.304 14.144-0.832 0.832-2.496 4.992-3.328 14.976v0 5.824l5.824 1.664c3.328 0.832 7.488 1.664 12.48 2.496l4.622 0.863c3.328 0.616 7.026 1.356 10.354 2.465 11.648 3.328 37.44 10.816 51.584 15.808 4.16 1.664 9.984 3.328 15.808 5.824 14.144 4.992 29.12 9.984 35.776 11.648 4.16 0 13.312 4.992 20.8 9.152l5.72 3.211c5.772 3.237 11.544 6.357 15.912 7.605 4.16 1.664 7.488 2.496 10.816 4.16 5.824 1.664 8.32 3.328 11.648 3.328v0h6.656zM676.736 655.104l-107.328-265.408 50.752-14.976 22.464 54.912 104.832-32.448 18.304-66.56 50.752-16.64-89.856 326.144-49.92 14.976zM699.2 570.24l31.616-112.32-69.056 20.8 37.44 91.52zM341.441 635.967c9.984 0 16.639-5.824 19.135-14.976 1.664-10.816-0.831-16.64-2.495-19.136-6.656-13.312-22.464-20.8-29.12-23.296-7.488-3.328-20.801-6.656-32.449-6.656v0h-0.831c-6.656 0.832-16.64 3.328-29.12 16.64-5.824 6.656-13.313 24.128-10.817 30.784v0l2.497 4.992h8.32l1.663-1.664c2.496-0.832 7.488-1.664 12.48-1.664v0h4.16c4.992 0.832 16.64 4.16 24.128 6.656v0l4.16 0.832c6.656 2.496 22.465 6.656 28.289 7.488zM784.064 878.080l-252.096-86.528 252.096-74.88v161.408z" />
<glyph unicode="&#xe91d;" glyph-name="Pagination" data-tags="Pagination" d="M487.976 672v-434.806h-261.515c-112.64 0-204.012 97.674-204.012 217.403 0 120.517 91.372 217.403 204.012 217.403v0h261.515zM797.541 672c111.85 0 203.222-96.886 204.010-217.403 0-120.517-91.372-217.403-204.010-217.403v0h-261.515v434.806zM312.32 540.455c-4.726 7.877-14.966 9.452-22.843 3.151v0l-89.797-74.831c-3.938-3.151-6.301-8.665-6.301-14.178s2.362-11.028 6.301-14.178v0l92.161-75.618c3.151-2.363 6.301-3.151 9.452-3.151 4.726 0 9.452 2.363 12.603 7.089 5.514 7.877 3.939 18.905-3.15 24.418v0l-74.831 61.44 73.255 60.652c7.089 6.302 8.665 17.329 3.151 25.206zM732.948 543.606c-6.302 6.302-16.54 4.726-22.054-3.151s-3.939-18.905 3.15-25.206v0l73.255-60.652-74.831-61.44c-7.089-5.514-8.665-16.542-3.152-24.418 3.151-4.726 7.878-7.089 12.604-7.089 3.151 0 6.301 0.788 9.452 3.151v0l92.159 75.618c3.938 3.938 6.302 8.665 5.514 14.178 0 5.514-2.363 11.028-6.302 14.178v0z" />
<glyph unicode="&#xe91e;" glyph-name="PDF-Print" data-tags="PDF-Print" d="M371.714 531.511h-14.455v-43.369h10.326c9.292 0 16.521 2.065 21.683 5.163 5.163 4.13 7.228 9.293 7.228 16.522s-2.065 12.391-6.196 16.522c-4.129 3.098-10.325 5.163-18.586 5.163zM486.334 435.479h13.423c29.945 0 45.433 16.522 45.433 48.532s-14.455 47.5-42.335 47.5h-16.521v-96.032zM899.379 659.555h-146.63v106.358c0 36.141-29.946 66.087-66.087 66.087h-370.706c-36.141 0-66.087-29.946-66.087-66.087v-105.326h-145.597c-21.685 0-40.272-17.554-40.272-39.239v-356.249c0-21.685 17.554-40.272 40.272-40.272h146.63v-72.282c0-36.141 29.946-66.087 66.087-66.087h370.706c36.141 0 66.087 29.946 66.087 66.087v73.315h146.63c21.685 0 40.272 17.554 40.272 40.272v354.184c-2.065 21.685-19.619 39.239-41.304 39.239zM315.956 796.891h370.706c17.554 0 32.011-14.456 32.011-32.011v-105.326h-433.695v106.358c0 17.554 13.424 30.978 30.978 30.978zM717.64 151.513c0-17.554-14.456-32.011-32.011-32.011h-369.674c-17.554 0-32.011 14.456-32.011 32.011v159.021h433.695v-159.021zM781.662 560.425c-13.424 0-24.783 11.359-24.783 24.783s11.359 24.783 24.783 24.783c13.424 0 24.783-11.359 24.783-24.783s-11.359-24.783-24.783-24.783zM862.205 562.49c-13.424 0-24.783 11.359-24.783 24.783s11.359 24.783 24.783 24.783c13.424 0 24.783-11.359 24.783-24.783s-11.359-24.783-24.783-24.783z" />
<glyph unicode="&#xe91f;" glyph-name="Pinning" data-tags="Pinning" d="M597.265 213.084c4.511 38.791-3.607 68.56-24.355 89.308l165.984 165.984c10.825-10.825 26.161-17.14 41.496-16.238 32.475 0 58.636 26.161 58.636 58.636 0.902 15.335-5.413 30.671-16.238 41.496l-205.677 205.677c-10.825 10.825-26.161 17.14-41.496 16.238-32.475 0-58.636-26.161-58.636-58.636-0.902-15.335 5.413-30.671 16.238-41.496l-166.887-166.887c-21.65 21.65-51.419 29.769-89.306 24.355-36.986-4.51-71.266-20.747-97.426-46.908-5.413-5.413-9.021-12.629-8.119-20.748 0-7.217 2.707-15.336 8.12-20.749l128.998-128.998-133.509-182.222c-5.413-5.413-3.608-14.433 0.902-18.944 2.706-2.706 5.413-3.608 9.021-3.608s7.217 1.804 9.923 2.706l173.201 140.726 138.020-138.020c5.413-5.413 12.629-9.021 20.748-8.119 7.217 0 15.336 2.706 20.748 8.119 28.867 27.063 45.104 61.342 49.615 98.328z" />
<glyph unicode="&#xe920;" glyph-name="popular-posts" data-tags="popular-posts" d="M130.304 576h256v-64h-256v64zM130.304 448h128v-64h-128v64zM130.304 320h128v-64h-128v64zM130.304 704h512v-64h-512v64zM130.304 832h512v-64h-512v64zM770.304 626.432v234.496c0 54.592-43.136 99.072-96.192 99.072h-575.68c-52.992 0-96.128-44.48-96.128-99.072v-697.792c0-54.656 43.136-99.136 96.128-99.136h304.384c64.576-78.080 162.176-127.872 271.424-127.872 194.432 0 352 157.568 352 351.936 0.064 161.024-108.288 296.512-255.936 338.368zM361.088 128h-262.656c-16.96 0-32.128 15.104-32.128 33.728v699.2c0 18.624 15.168 35.072 32.128 35.072h575.68c16.96 0 32.128-16.448 32.128-35.072v-222.528c-10.496 0.96-21.12 1.6-31.936 1.6-194.432 0-352-157.568-352-351.936 0-57.728 14.144-112 38.784-160.064zM615.168 426.56c52.352 68.16 51.392 85.44 51.392 85.44s40.704-26.752 66.88-85.44c26.176-58.688 18.88-128.96 18.88-128.96s12.16 4.608 32.512 30.528c20.352 25.92 20.608 87.168 20.608 87.168s60.8-71.616 60.8-159.68c0-126.080-110.528-184.768-110.528-184.768s-67.904 53.568-89.216 92.352c-21.312 38.016-36.864 103.872-36.864 103.872s-30.080-55.488-30.080-90.88c1.92-69.888 45.568-105.344 45.568-105.344s-162.88 49.216-162.88 164.864c0.128 115.712 80.576 123.52 132.928 190.848z" />
<glyph unicode="&#xe921;" glyph-name="Portfolio" data-tags="Portfolio" d="M480 416v-334.133h-334.133v334.133h334.133zM878.133 416v-334.133h-334.133v334.133h334.133zM480 814.133v-334.133h-334.133v334.133h334.133zM878.133 814.133v-334.133h-334.133v334.133h334.133z" />
<glyph unicode="&#xe922;" glyph-name="Post-to-CSV" data-tags="Post-to-CSV" d="M531.052 876.092v-318.833h297.837v-537.351h-636.889v856.184h339.052zM513.348 381.026l-7.181-0.292c-17.108 0-31.106-3.888-41.215-12.442s-14.775-20.219-14.775-34.994c0-7.776 1.555-13.998 4.666-20.219s6.999-10.887 12.442-15.553c4.666-4.666 12.442-9.332 22.552-13.998 10.887-5.443 17.886-9.332 21.774-11.665 3.111-2.333 6.221-4.666 7.776-6.999 2.333-2.333 3.111-5.443 3.111-8.554 0-6.221-2.333-10.109-6.221-13.22s-10.109-4.666-17.886-4.666c-6.221 0-13.22 0.778-20.996 3.111s-17.886 6.221-28.773 10.887v0-32.661c13.998-6.999 29.55-10.109 47.436-10.109 19.441 0 34.216 4.666 45.103 13.22s16.33 20.996 16.33 35.772c0 10.887-3.111 19.441-8.554 27.217s-16.33 14.775-31.883 22.552c-11.665 5.443-19.441 9.332-22.552 11.665s-5.443 4.666-6.999 6.999c-1.555 2.333-2.333 5.443-2.333 8.554 0 5.443 1.555 9.332 5.443 12.442s8.554 4.666 15.553 4.666c5.443 0 11.665-0.778 17.108-2.333s13.22-3.888 21.774-7.776v0l11.665 27.217c-8.554 3.888-17.108 6.221-24.885 8.554s-15.553 3.111-25.662 2.333zM380.189 381.512c-15.553 0-29.55-3.111-41.215-10.109s-20.996-17.108-27.217-30.328c-6.221-13.22-9.332-28.773-9.332-45.881 0-27.217 6.221-48.214 19.441-62.989s31.883-21.774 55.99-21.774c17.108 0 31.883 3.111 45.881 8.554v0 29.55c-17.108-5.443-31.106-8.554-42.77-8.554-27.995 0-41.993 18.663-42.77 55.213 0 17.886 3.888 31.883 10.887 41.993 7.776 10.109 17.886 14.775 31.106 14.775 6.221 0 12.442-0.778 18.663-3.111s12.442-4.666 18.663-7.776v0l11.665 28.773c-16.33 7.776-32.661 11.665-48.991 11.665zM602.595 379.179h-36.549l56.768-166.415h38.882l56.768 166.415h-35.772l-31.883-99.538c-4.666-17.108-7.776-29.55-8.554-36.549l-0.015 0.104-0.253 2.666c-0.34 2.139-0.972 4.86-1.701 8.165l-1.142 5.395c-1.555 7.776-3.888 13.998-5.443 20.219v0l-31.106 99.538zM589.376 876.092l242.624-258.955h-242.624v258.955z" />
<glyph unicode="&#xe923;" glyph-name="Profile-Extra-Fields" data-tags="Profile-Extra-Fields" d="M959.524 265.24v-128h-895.048v128h895.048zM420.213 758.76v-373.809h-35.194c-20.926 82.752-39.948 141.724-141.723 141.724s-120.798-58.972-140.773-142.675v0h-38.047v374.76h355.737zM959.524 512v-128h-420.141v128h420.141zM243.296 695.032c-38.047 0-68.484-30.437-68.484-68.484 0-42.803 30.437-68.484 68.484-68.484s68.484 30.437 68.484 68.484c0 38.047-30.437 68.484-68.484 68.484zM959.524 758.76v-128h-420.141v128h420.141z" />
<glyph unicode="&#xe924;" glyph-name="PromoBar" data-tags="PromoBar" d="M886.74 780.999c16.914 0 42.286-25.371 41.228-42.286v0-582.483c0-15.857-24.314-41.228-41.228-41.228v0h-749.511c-15.857 0-41.229 24.314-41.229 41.228v0 583.54c0 15.857 24.314 41.228 41.229 41.228v0zM875.111 593.885h-726.254v-416.513h726.254v416.513zM824.368 530.457v-103.6h-624.768v103.6h624.768zM461.77 718.627h-62.371v-62.371h62.371v62.371zM337.028 718.627h-62.371v-62.371h62.371v62.371zM211.228 718.627h-62.371v-62.371h62.371v62.371z" />
<glyph unicode="&#xe925;" glyph-name="Quotes-Tips" data-tags="Quotes-Tips" d="M452.325 132.324h-324.325v288l141.837 343.352h140.109l-89.946-307.027h132.325v-324.325zM896 132.324h-324.325v288l152.216 343.352h140.109l-89.946-307.027h121.945v-324.325z" />
<glyph unicode="&#xe926;" glyph-name="Rating" data-tags="Rating" d="M145.36 490.82l163.901-139.825-49.077-212.978c-12.038-42.596 36.114-73.153 66.672-48.152l188.903 114.823 188.903-115.749c36.114-24.076 78.709 12.038 66.671 48.152l-54.633 212.978 163.901 139.825c30.558 24.076 12.038 78.709-24.076 78.709l-218.535 18.52-85.192 200.94c-18.52 36.114-66.671 36.114-85.192 0l-85.191-200.94-218.535-18.52c-37.040 0.926-49.078-53.707-18.52-77.783z" />
<glyph unicode="&#xe928;" glyph-name="Realty" data-tags="Realty" d="M858.52 412.82v-328.93h-103.781v224.271h-138.959v-225.15h-450.301v329.81h-69.479l121.369 121.37v207.56h103.781v-103.78l190.849 175.019 416.001-400.169z" />
<glyph unicode="&#xe929;" glyph-name="Relevant" data-tags="Relevant" d="M769.895 856.62c40.042 0 72.075-33.635 72.075-74.478v0-411.629c62.465-36.838 104.909-104.909 104.909-184.192 0-116.922-94.499-212.221-212.221-212.221-64.067 0-121.727 28.83-160.968 73.677v0h-322.736c-40.042 0-72.075 33.635-72.075 74.478v0 659.888c0 40.843 32.033 74.478 72.075 74.478v0zM769.895 807.769h-518.94c-12.813 0-23.224-12.013-23.224-25.627v0-659.087c0-14.415 10.411-25.627 23.224-25.627v0h290.703c-12.813 27.228-20.021 57.66-20.021 89.694 0 117.723 95.299 213.022 213.021 212.221 20.021 0 40.042-2.403 58.461-8.008v0 390.807c0 14.415-10.411 25.627-23.224 25.627v0zM701.023 258.396h-36.838c-32.834-2.403-58.461-31.233-58.461-67.27v0-3.203c0-38.44 28.83-68.071 64.067-68.071v0h55.258c32.033 2.403 57.66 31.233 58.461 67.27v0 3.203c0 4.004 0 8.809-0.801 12.813v0h-22.423c-5.606 0-10.411-3.203-12.813-8.008 0.801-1.602 0.801-3.203 0.801-4.805 0-16.017-12.813-33.635-29.631-36.038v0h-42.444c-19.22 0-34.436 15.216-34.436 32.834 0 16.017 12.813 33.635 29.631 36.038v0h5.606c4.805 13.614 13.614 25.627 24.025 35.237v0zM804.331 258.396h-55.258c-32.834-2.403-58.461-31.233-58.461-67.27v0-3.203c0-4.004 0-8.809 0.801-12.813v0h21.623c5.606 0 10.411 3.203 12.813 8.008-0.801 1.602-0.801 3.203-0.801 4.805 0 16.017 12.813 33.635 29.631 36.038v0h42.444c19.22 0 34.436-15.216 34.436-32.834 0-16.017-12.813-33.635-29.631-36.038v0h-5.606c-4.805-13.614-13.614-25.627-24.025-35.237v0h36.838c32.834 2.403 58.461 31.233 58.461 67.27 0 1.602 0 2.403 0.801 3.203 0 38.44-28.83 68.071-64.067 68.071v0zM528.842 430.576v-52.855h-241.048v52.855h241.048zM731.456 536.286v-52.855h-443.662v52.855h443.662zM731.456 641.996v-52.855h-443.662v52.855h443.662zM731.456 746.906v-52.854h-443.662v52.854h443.662z" />
<glyph unicode="&#xe92a;" glyph-name="Sender" data-tags="Sender" d="M110.119 518.090l90.96-68.9 317.673 141.188-246.267-194.098v-238.219c0.015-14.822 9.289-28.055 23.215-33.128s29.539-0.906 39.084 10.432l110.48 131.269 229.607-172.108c9.68-7.279 22.416-9.088 33.739-4.791s19.653 14.1 22.066 25.969l141.188 705.939c2.547 12.704-2.071 25.783-12.031 34.071s-23.66 10.452-35.69 5.638l-705.939-282.376c-11.79-4.757-20.111-15.486-21.784-28.088s3.56-25.131 13.701-32.799z" />
<glyph unicode="&#xe92b;" glyph-name="SMTP" data-tags="SMTP" d="M789.781 381.344c106.039 0 192-85.961 192-192s-85.961-192-192-192c-106.039 0-192 85.961-192 192s85.961 192 192 192zM792.458 294.944l-107.34-121.795h64.779v-89.405h84.587v89.405h59.961l-101.987 121.795zM896 641.969l0.038-216.732c-32.416 14.624-68.386 22.763-106.257 22.763-135.796 0-247.15-104.647-257.819-237.697l-355.962-0.017c-26.4 0-44.733 15.601-47.606 39.654l-0.394 6.764v385.266l360-194.954c11.2-5.415 27.733-6.318 40.711-2.708l7.289 2.708 360 194.954zM848 813.714c26.4 0 44.733-15.601 47.606-39.654l0.394-6.764v-69.626l-384-204.237-384 208.879v64.985c0 25.53 16.133 43.259 41.006 46.036l6.994 0.381h672z" />
<glyph unicode="&#xe92c;" glyph-name="Social-Buttons-Pack" data-tags="Social-Buttons-Pack" d="M667.429 566.857c90.734 0 164.571 73.838 164.571 164.571s-73.838 164.571-164.571 164.571c-90.734 0-164.571-73.838-164.571-164.571 0-12.233 1.591-24.082 4.114-35.602l-176.64-110.373c-28.087 22.327-63.141 36.261-101.76 36.261-90.734 0-164.571-73.838-164.571-164.571s73.838-164.571 164.571-164.571c38.619 0 73.673 13.934 101.76 36.261l176.64-110.373c-2.523-11.52-4.114-23.369-4.114-35.602 0-90.734 73.838-164.571 164.571-164.571s164.571 73.838 164.571 164.571c0 90.734-73.838 164.571-164.571 164.571-38.619 0-73.673-13.934-101.76-36.261l-176.64 110.373c2.523 11.52 4.114 23.369 4.114 35.602s-1.591 24.082-4.114 35.602l176.64 110.373c28.087-22.327 63.141-36.261 101.76-36.261z" />
<glyph unicode="&#xe92d;" glyph-name="Social-Login" data-tags="Social-Login" d="M538.806 260.36l0.023-119.376c27.061-10.694 46.206-37.086 46.206-67.949 0-40.336-32.699-73.034-73.034-73.034s-73.034 32.699-73.034 73.034c0 30.839 19.114 57.214 46.142 67.924l0.087 119.401h53.612zM512 896c40.336 0 73.034-32.699 73.034-73.034 0-30.839-19.114-57.214-46.142-67.924l-0.010-67.479c45.544-5.761 86.756-25.952 118.872-55.811l52.368 52.312c-11.574 26.697-6.449 58.896 15.375 80.72 28.522 28.522 74.765 28.522 103.286 0s28.522-74.765 0-103.286c-21.807-21.807-53.972-26.941-80.657-15.402l-55.715-55.723c21.521-33.405 34.034-73.096 34.034-115.567v0l92.57 0.023c10.694 27.061 37.086 46.206 67.949 46.206 40.336 0 73.034-32.699 73.034-73.034s-32.699-73.034-73.034-73.034c-30.839 0-57.214 19.114-67.924 46.142l-99.423 0.093c-9.072-34.923-26.783-66.46-50.689-92.168l79.134-79.156c26.697 11.574 58.896 6.449 80.72-15.375 28.522-28.522 28.522-74.765 0-103.286s-74.765-28.522-103.286 0c-21.807 21.807-26.941 53.972-15.402 80.657l-82.466 82.561c-33.418-21.546-73.132-34.075-115.63-34.075s-82.211 12.529-115.63 34.075l-82.493-82.498c11.574-26.697 6.449-58.896-15.375-80.72-28.522-28.522-74.765-28.522-103.286 0s-28.522 74.765 0 103.286c21.807 21.807 53.972 26.941 80.657 15.402l79.197 79.128c-23.906 25.708-41.617 57.245-50.689 92.168l-99.397-0.030c-10.694-27.061-37.086-46.206-67.949-46.206-40.336 0-73.034 32.699-73.034 73.034s32.699 73.034 73.034 73.034c30.839 0 57.214-19.114 67.924-46.142l92.596-0.087c0 42.498 12.529 82.211 34.075 115.63l-55.693 55.687c-26.697-11.574-58.896-6.449-80.72 15.375-28.522 28.522-28.522 74.765 0 103.286s74.765 28.522 103.286 0c21.807-21.807 26.941-53.972 15.402-80.657l52.341-52.375c32.132 29.873 73.367 50.069 118.936 55.819l-0.011 67.445c-27.061 10.694-46.206 37.086-46.206 67.949 0 40.336 32.699 73.034 73.034 73.034zM512 635.64c-88.459 0-160.835-72.376-160.835-160.835 0-45.57 18.764-85.778 50.931-115.265 10.722 18.764 32.167 26.806 56.292 34.847 18.764 5.361 24.125 16.083 26.806 32.167-32.167 10.722-53.612 40.209-53.612 75.056 0 45.57 34.847 80.417 80.417 80.417s80.417-34.847 80.417-80.417c0-34.847-24.125-64.334-53.612-75.056 2.681-16.083 8.042-26.806 26.806-32.167 24.125-8.042 45.57-16.083 56.292-34.847 32.167 29.486 50.931 69.695 50.931 115.265 0 88.459-72.376 160.835-160.835 160.835z" />
<glyph unicode="&#xe92e;" glyph-name="Subscriber" data-tags="Subscriber" d="M895.183 508.766v-365.208c0-28.596-22.877-51.472-51.472-51.472v0h-664.238c-28.596 0-51.472 22.877-51.472 51.472v0 365.208l337.43-214.059c13.889-8.987 30.23-13.072 45.753-13.072 16.34 0 31.864 4.085 45.753 13.072v0l338.247 214.059zM630.47 389.48l-67.813-42.486h-102.128l-67.813 42.486h237.754zM708.902 478.536v-39.217l-4.902-3.268h-384.817l-4.902 3.268v39.217h394.621zM485.855 797.174c16.34 8.987 35.949 8.987 51.472 0v0l332.528-189.549c16.34-8.987 26.145-26.145 26.145-44.936v0-5.719l-124.187-78.434v124.187c0 14.706-10.621 26.145-23.694 26.145v0h-472.238c-13.072 0-23.694-12.255-23.694-26.145v0-124.187l-124.187 78.434v5.719c0 18.791 9.804 35.949 26.145 44.936v0zM708.904 566.775v-46.571h-395.438v46.571h395.438z" />
<glyph unicode="&#xe92f;" glyph-name="Testimonials" data-tags="Testimonials" d="M512 832c211.2 0 384-148.8 384-336 0-86.4-38.4-163.2-96-220.8v0-211.2l-235.2 100.8c-14.4-4.8-33.6-4.8-52.8-4.8-211.2 0-384 148.8-384 336s172.8 336 384 336zM497.202 625.354l-28.397-66.98-72.845-6.173c-12.347 0.309-16.359-17.902-6.173-25.928l54.634-46.608-16.359-70.993c-4.013-14.199 12.038-24.384 22.224-16.051l62.968 38.274 62.968-38.583c12.038-8.025 26.236 4.013 22.224 16.051l-18.211 70.993 54.634 46.608c10.186 8.025 4.013 26.236-8.025 26.236l-72.845 6.173-28.397 66.98c-6.173 12.038-22.224 12.038-28.397 0z" />
<glyph unicode="&#xe930;" glyph-name="Timesheet" data-tags="Timesheet" d="M785.752 425.639c113.631 0 206.248-91.839 206.248-206.249 0-113.631-91.838-206.249-206.248-206.249-113.631 0-206.249 91.839-206.249 206.249 0 113.631 91.839 206.249 206.249 206.249zM461.979 251.3c22.571 0 40.471-17.901 40.471-40.471s-17.901-40.471-40.471-40.471h-261.508c-22.571 0-40.472 17.901-40.472 40.471s17.901 40.471 40.472 40.471h261.508zM784.974 360.261c-13.231 0-24.127-10.895-24.127-24.126v0-140.872h81.721c13.231 0 24.127 10.896 24.127 24.127s-10.896 24.126-24.127 24.126v0h-33.467v92.618c0 13.231-10.896 24.126-24.127 24.126zM514.125 418.634c22.571 0 40.472-17.901 40.472-40.471 0-21.792-17.902-40.471-40.472-40.471h-313.653c-22.571 0-40.472 17.901-40.472 40.471s17.901 40.471 40.472 40.471h313.653zM812.992 586.746c22.571 0 40.471-17.901 40.471-40.471s-17.901-40.471-40.471-40.471h-612.521c-22.571 0-40.472 17.901-40.472 40.471s17.901 40.471 40.472 40.471h612.521zM812.992 754.859c22.571 0 40.471-17.901 40.471-40.472s-17.901-40.471-40.471-40.471h-612.521c-22.571 0-40.472 17.901-40.472 40.471s17.901 40.472 40.472 40.472h612.521z" />
<glyph unicode="&#xe931;" glyph-name="Tweeting" data-tags="Tweeting" d="M96 512.112c0 0 182.965-117.559 341.991 117.559 127.285 187.133 180.721 195.255 248.585 195.255s98.75-35.909 134.552-97.895c35.802-61.986 106.872-26.184 106.872-26.184 0-82.185-93.406-94.154-93.406-94.154s32.062-121.407-44.566-262.799c-44.352-81.116-170.675-109.651-235.439-118.949 1.282-19.451 1.71-38.795 1.71-58.245 0-10.687 0-22.336 0-33.451 12.29-2.244 24.474-4.596 36.764-7.16 22.016-4.596 44.031-9.619 65.833-16.138l-4.275-37.619c-22.764-1.389-45.314-1.496-67.757-0.962s-44.993 1.496-67.329 2.992l-27.146 1.924-1.924 29.71c-0.855 20.092-1.496 40.291-1.496 60.383 0 18.168 0 36.337 1.603 54.398-313.884 13.466-394.572 291.334-394.572 291.334z" />
<glyph unicode="&#xe932;" glyph-name="Updater" data-tags="Updater" d="M577.587 153.065h-367.624c-33.42 0-60.156 26.736-60.156 60.157v301.619h-87.729c-11.697 0-22.559 6.684-27.572 17.546-1.671 4.178-2.507 8.355-2.507 12.533 0 6.684 2.507 13.368 6.684 19.217l153.734 171.279c5.849 6.684 14.203 10.862 23.393 10.862s17.546-4.178 23.394-10.862l146.214-171.279c4.178-5.849 6.685-12.533 6.685-19.217 0-4.178-0.836-8.355-2.507-12.533-5.013-10.862-15.875-17.546-27.572-17.546h-96.084v-245.64h311.645v-116.136zM985.316 335.206l-145.379-174.621c-5.849-6.684-14.204-10.862-23.395-10.862s-17.545 4.178-23.393 10.862l-154.569 174.621c-4.178 5.849-6.684 12.533-6.684 19.217 0 4.178 0.836 8.355 2.507 12.533 5.013 10.862 15.874 17.546 27.571 17.546h96.919v246.475h-312.48v115.3h367.624c33.42 0 60.157-26.736 60.157-60.157v-301.619h87.728c11.697 0 22.559-6.684 27.572-17.546 1.671-4.178 2.507-8.355 2.507-12.533 0-6.684-2.507-13.368-6.684-19.217z" />
<glyph unicode="&#xe933;" glyph-name="User-Role" data-tags="User-Role" d="M871.804 374.944l15.22-40.585c10.146-2.029 19.277-6.088 28.409-11.161v0l39.572 19.278 33.483-32.468-19.278-39.571c5.073-9.132 9.131-18.263 12.175-28.41v0l41.6-14.205v-46.673l-41.6-14.205c-3.044-10.146-7.101-19.278-12.175-28.41v0l19.278-39.572-33.483-32.468-39.572 19.278c-9.132-4.059-18.262-8.117-28.409-11.161v0l-15.22-41.6h-46.674l-15.218 41.6c-10.146 2.029-19.278 6.088-28.41 11.161v0l-39.571-19.278-33.483 32.468 19.278 39.572c-5.073 9.132-9.131 18.263-12.175 28.41v0l-41.6 14.205v46.673l41.6 14.205c3.044 10.146 7.101 19.278 12.175 28.41v0l-19.278 39.571 33.483 32.468 39.571-19.278c9.132 4.059 18.263 8.117 28.41 11.161v0l15.218 40.585h46.674zM506.538 864c113.639-5.073 150.165-75.083 156.253-142.049 2.029-19.278-2.029-55.805-7.102-95.376 25.366 6.088 22.322-53.776 21.307-73.054s-8.116-50.732-28.409-44.644c-10.146-81.171-41.601-106.537-39.572-106.537v-86.244c0 0 7.102-5.073 37.541-19.278-12.176-28.41-19.278-59.863-19.278-92.332 0-43.629 12.176-85.229 33.483-119.727-57.834-17.249-113.639-23.337-153.21-32.468-77.112 18.263-215.102 20.293-315.551 133.932 15.22 2.029 53.775 55.805 105.521 78.127 88.273 37.541 119.728 50.732 119.728 50.732v0 86.244c0 0-43.63 26.38-53.777 107.551-20.293-6.088-27.394 24.351-28.409 44.644-1.015 18.263-8.118 78.127 17.249 73.054-5.073 40.585-9.132 76.098-7.102 95.376 6.088 66.966 64.937 136.976 161.328 142.049zM850.496 266.378c-35.511 0-63.921-28.41-63.921-62.907s28.41-62.907 63.921-62.907c34.498 0 62.908 28.41 63.923 62.907 0 34.498-28.411 62.907-63.923 62.907z" />
<glyph unicode="&#xe934;" glyph-name="Visitors-Online" data-tags="Visitors-Online" d="M511.999 817.2c88-4.8 144.8-68.8 151.2-128.8 1.6-17.6 4-46.4-0.8-82.4 23.2 4.8 25.6-32 16-63.2-5.6-17.6-16-54.4-35.2-48.8-9.6-74.4-44-93.6-44-93.6v0-78.4c0 0 23.2-16 104-50.4 6.4-3.2 12-5.6 17.6-9.6-11.2-20-18.4-43.2-18.4-68 0-21.6 4.8-41.6 13.6-59.2-74.4-39.2-153.6-44-204-56v0h-0.8c-69.599 16.8-194.399 18.4-285.599 122.4 13.6 2.4 49.6 51.2 96 71.2 80 34.4 104 50.4 104 50.4v0 78.4c0 0-34.4 19.2-44 93.6-19.2-5.6-28.8 31.2-35.2 48-12 32-7.2 68 16 63.2-4.8 36-2.4 64.8-0.8 82.4 5.6 60.8 62.4 124 150.399 128.8zM835.202 274.8c43.198 0 79.198-35.2 79.198-78.4s-36-78.4-79.198-78.4c-44 0-79.199 35.2-79.199 78.4s35.999 78.4 79.199 78.4zM291.2 809.999c26.4-1.6 48.8-9.6 67.2-21.6-24-29.6-38.4-63.2-41.6-96-1.6-15.2-0.8-36 3.2-69.6-16-23.2-23.2-24-20.8-48.8v0-63.2c1.6-23.2 20-32.8 43.2-50.4 8.8-39.2 24.8-60 36-75.2v0-48c-14.4-6.4-39.2-9.6-75.2-24-35.2-15.2-63.2-41.6-82.4-59.2-3.2-3.2-7.2-6.4-10.4-9.6-48 11.2-100.8 30.4-144.8 80 10.4 1.6 38.4 40 75.2 56 63.2 26.4 78.4 36 78.4 36v0l0.8 62.4c0 0-24 18.4-31.2 76.8-14.4-4.8-27.2 20.8-31.2 34.4-15.2 48 1.6 53.6 20 49.6-3.2 28.8-6.4 54.4-4.8 68 4.8 48 49.6 98.4 118.4 102.4zM732.8 809.2c69.6-3.2 114.4-53.6 118.4-101.6 1.6-13.6-0.8-39.2-4.8-68 17.6 4 35.2-2.4 20-49.6-4-13.6-16-40-31.2-35.2-7.2-58.4-31.2-76.8-31.2-76.8v0l0.8-62.4c0 0 15.2-8.8 78.4-36 36.8-16 64.8-54.4 75.2-56-10.4-11.2-20.8-20.8-31.2-28.8-24 20.8-56 34.4-90.4 34.4-33.6 0-64-12.8-88-32.8-8.8 6.4-18.4 12-28.8 16-35.2 14.4-60 18.4-74.4 24.8v0 47.2c11.2 15.2 27.2 35.2 36 75.2 23.2 17.6 41.6 27.2 43.2 50.4v0 63.2c2.4 25.6-4.8 24.8-20.8 48.8 4 33.6 4.8 55.2 3.2 69.6-3.2 32.8-17.6 67.2-41.6 96 18.4 12 40.8 20 67.2 21.6z" />
<glyph unicode="&#xe935;" glyph-name="Zendesk-HC" data-tags="Zendesk-HC" d="M851.411 787.411c187.452-187.452 187.452-491.371 0-678.823s-491.371-187.452-678.823 0c-187.452 187.452-187.452 491.371 0 678.823s491.371 187.452 678.823 0zM157.804 666.356c-82.416-133.434-82.405-303.344 0.035-436.768l143.129 143.147c-17.282 48.562-17.29 101.896-0.024 150.463l-143.14 143.158zM730.356 93.804l-143.158 143.14-7.276-2.446c-44.122-13.996-91.723-13.996-135.845 0l-7.276 2.446-143.158-143.14c133.416-82.405 303.296-82.405 436.712 0zM625.137 561.137c-62.484 62.484-163.79 62.484-226.274 0s-62.484-163.79 0-226.274c62.484-62.484 163.79-62.484 226.274 0s62.484 163.79 0 226.274zM730.412 802.162c-133.443 82.451-303.381 82.451-436.824 0l143.147-143.129 7.343 2.47c44.122 13.996 91.723 13.996 135.845 0l7.343-2.47 143.147 143.129zM866.196 666.356l-143.14-143.158c17.266-48.567 17.258-101.901-0.024-150.463l143.129-143.147c82.439 133.424 82.451 303.334 0.035 436.768z" />
<glyph unicode="&#xe936;" glyph-name="Opening" data-tags="Opening" d="M507.296 32c25.086 0 47.166 10.156 66.241 30.469s28.613 44.823 28.613 73.531c0 15.708-2.482 42.656-7.447 80.844s-12.412 75.427-22.342 111.719c25.086-28.708 51.608-54.708 79.568-78s48.211-39 60.754-47.125c25.086-15.708 50.171-20.042 75.257-13s45.206 23.563 60.362 49.563c15.156 26 19.337 52.677 12.543 80.031s-22.734 47.531-47.819 60.531c-12.543 7.583-35.277 18.146-68.201 31.688s-67.156 25.458-102.694 35.75c35.538 10.292 69.769 22.208 102.694 35.75s55.659 24.104 68.201 31.688c25.086 13 41.025 33.177 47.819 60.531s2.613 54.031-12.543 80.031c-12.543 26-31.749 42.521-57.618 49.562s-50.302 2.708-73.297-13c-12.543-8.125-32.794-23.833-60.754-47.125s-54.483-49.292-79.568-78c9.93 36.292 17.508 73.531 22.734 111.719s7.839 65.135 7.839 80.844c0 28.708-9.668 53.219-29.005 73.531s-41.548 30.469-66.633 30.469c-25.086 0-47.297-10.156-66.633-30.469s-29.005-44.823-29.005-73.531c0-15.708 2.613-42.656 7.839-80.844s12.804-75.427 22.734-111.719c-25.086 28.708-51.608 54.708-79.568 78s-48.211 39-60.754 47.125c-22.995 15.708-47.427 20.042-73.297 13s-45.076-23.562-57.618-49.562c-15.156-26-19.337-52.677-12.543-80.031s22.734-47.531 47.819-60.531c12.543-7.583 35.277-18.146 68.201-31.688s67.156-25.458 102.694-35.75c-35.538-10.292-69.769-22.208-102.694-35.75s-55.659-24.104-68.201-31.688c-25.086-13-40.372-33.177-45.859-60.531s-1.96-54.031 10.583-80.031c12.543-26 31.618-42.521 57.226-49.563s48.342-2.708 68.201 13c12.543 8.125 32.794 23.833 60.754 47.125s54.483 49.292 79.568 78c-9.93-36.292-17.377-73.531-22.342-111.719s-7.447-65.135-7.447-80.844c0-28.708 9.668-53.219 29.005-73.531s41.548-30.469 66.633-30.469z" />
<glyph unicode="&#xe937;" glyph-name="Real-Estate" data-tags="Real-Estate" d="M858.52 412.82v-328.93h-103.781v224.271h-138.959v-225.15h-450.301v329.81h-69.479l121.369 121.37v207.56h103.781v-103.78l190.849 175.019 416.001-400.169z" />
<glyph unicode="&#xe938;" glyph-name="Renty" data-tags="Renty" d="M730.951 756c66.579 0 107.435-96.778 134.672-149.007l34.803 23.042c18.158 10.753 40.855 6.145 52.961-12.289 13.618-12.289 4.539-41.476-12.105-52.229l-36.316-23.042c16.645-16.898 40.855-50.693 40.855-125.965 1.513-82.953 1.513-165.905 1.513-248.858 0-15.362-12.105-27.651-27.237-27.651h-121.053c-15.132 0-27.237 12.289-27.237 27.651 0 10.753 0 21.506 0 33.796h-520.528c0-12.289 0-23.042 0-33.796 0-15.362-12.105-27.651-27.237-27.651h-121.053c-15.132 0-27.237 12.289-27.237 27.651 0 82.953 0 165.905 0 248.858 1.513 75.272 25.724 109.067 40.855 125.965l-36.316 23.042c-16.645 10.753-21.184 35.332-10.592 52.229 15.132 15.362 30.263 26.115 51.448 12.289l36.316-23.042c27.237 52.229 68.092 149.007 134.672 149.007h438.818zM605.358 262.893c7.566 0 13.618 4.608 13.618 12.289v46.085c0 6.145-6.053 12.289-13.618 12.289h-187.632c-7.566 0-13.618-6.145-13.618-12.289v-46.085c0-7.681 6.053-12.289 13.618-12.289h187.632zM811.148 600.848c-16.645 32.259-31.776 66.055-48.421 98.314h-502.37c-16.645-32.259-33.29-66.055-48.421-98.314 196.711-33.796 402.502-33.796 599.213 0zM131.738 401.147c55.987-10.753 110.461-18.434 163.422-30.723 13.618-6.145 22.697-18.434 30.263-32.259 3.026-6.145 3.026-15.362 1.513-24.579-52.961 7.681-104.408 16.898-155.856 26.115-16.645 6.145-30.263 18.434-39.342 35.332-1.513 12.289-1.513 21.506 0 26.115zM889.833 401.147c-54.474-10.753-108.948-18.434-163.422-30.723-12.105-6.145-22.697-18.434-30.263-32.259-1.513-6.145-1.513-15.362 0-24.579 51.448 7.681 104.408 16.898 155.856 26.115 16.645 6.145 30.263 18.434 39.342 35.332 1.513 12.289 1.513 21.506-1.513 26.115z" />
<glyph unicode="&#xe939;" glyph-name="Unity" data-tags="Unity" d="M533.125 530.875c30.875 0 57.552 11.104 80.031 33.312s33.719 49.021 33.719 80.437v164.938l-52 30.875c-26 15.708-53.625 23.562-82.875 23.562s-56.875-7.854-82.875-23.562l-10.562-4.875v-190.938c0-31.417 11.24-58.229 33.719-80.437s49.427-33.312 80.844-33.312zM512 32c29.25 0 56.875 7.854 82.875 23.563l224.25 123.5c26 15.708 46.312 35.75 60.938 60.125s21.937 50.917 21.937 79.625v253.5c0 30.875-7.312 58.5-21.937 82.875s-34.938 43.062-60.938 56.062l-57.688 30.875v-103.187c0-38.458-6.906-71.771-20.719-99.938s-32.771-51.188-56.875-69.062c-24.104-17.875-52.271-31.146-84.5-39.813s-66.49-13-102.781-13c-36.292 0-70.552 4.333-102.781 13s-60.396 21.938-84.5 39.813c-24.104 17.875-43.198 40.896-57.281 69.062s-21.125 61.479-21.125 99.938v82.875l-26-10.562c-26-13-46.313-31.688-60.938-56.062s-21.938-52-21.938-82.875v-253.5c0-28.708 7.312-55.25 21.938-79.625s34.938-44.417 60.938-60.125l224.25-123.5c26-15.708 53.625-23.563 82.875-23.563z" />
<glyph unicode="&#xe93a;" glyph-name="Custom-Code" data-tags="Custom-Code" d="M373.75 112l82.25 88.375-228.375 247.625 228.375 247.625-82.25 88.375-309.75-336 309.75-336zM650.25 112l309.75 336-309.75 336-82.25-88.375 228.375-247.625-228.375-247.625 82.25-88.375z" />
<glyph unicode="&#xe93b;" glyph-name="Shortcode" data-tags="Shortcode" d="M400 56v168h-168v448h168v168h-336v-784h336zM960 56v784h-336v-168h168v-448h-168v-168h336z" />
<glyph unicode="&#xe93c;" glyph-name="BestWebSoft" data-tags="BestWebSoft" d="M390.104 11.348c30.033-0.292 61.378 3.791 94.035 12.246s65.606 21.14 98.846 38.051c37.322 18.661 74.207 42.571 110.655 71.729s70.708 62.982 102.782 101.47c16.912 19.828 32.511 40.092 46.799 60.795s27.263 41.842 38.926 63.419c25.076 46.070 44.32 92.285 57.733 138.647s20.119 90.682 20.119 132.961c0 42.279-6.415 81.205-19.244 116.778s-32.657 65.897-59.483 90.973c-26.242 23.91-56.567 40.238-90.973 48.986s-71.146 10.789-110.218 6.123c-39.072-4.665-79.31-16.183-120.715-34.552s-82.226-42.717-122.464-73.041c19.828 9.914 39.947 17.932 60.357 24.055s41.113 10.351 62.107 12.684c45.487 18.078 88.495 26.097 129.025 24.055s74.791-15.6 102.782-40.676c15.162-13.996 27.409-30.616 36.739-49.86s15.6-40.53 18.807-63.856c3.207-23.326 3.499-48.111 0.875-74.353s-8.018-53.068-16.183-80.476c-11.080-37.906-26.971-76.103-47.674-114.591s-46.216-75.811-76.54-111.967c-33.823-40.821-74.207-78.435-121.152-112.842s-95.639-59.628-146.082-75.665c-50.444-16.037-99.867-19.973-148.269-11.809s-90.682 34.698-126.838 79.602c5.832-23.91 14.433-46.070 25.805-66.481s25.805-38.489 43.3-54.234c20.994-19.244 44.758-33.678 71.292-43.3s54.817-14.579 84.85-14.871zM351.178 134.25c-30.908 26.825-55.255 59.92-73.041 99.283s-26.68 83.246-26.68 131.649c0 45.487 7.873 88.058 23.618 127.713s37.322 74.353 64.731 104.095c27.409 29.741 59.483 53.214 96.222 70.417s76.103 25.805 118.090 25.805c25.659 0 50.444-3.353 74.353-10.060s46.507-16.329 67.793-28.867c21.285-12.538 40.967-27.409 59.045-44.612s33.823-36.593 47.236-58.17c0.583 1.749 1.312 3.645 2.187 5.686s1.604 4.228 2.187 6.561c6.998 25.076 11.955 49.569 14.871 73.478s3.207 46.653 0.875 68.23c-15.162 15.745-32.074 29.595-50.735 41.55s-38.489 22.306-59.483 31.053c-45.487 18.661-93.16 25.076-143.021 19.244s-97.097-21.285-141.708-46.361c-44.612-25.076-83.975-58.754-118.090-101.033s-58.462-90.828-73.041-145.645c-8.747-33.823-13.704-67.501-14.871-101.033s1.021-66.043 6.561-97.534c5.54-31.491 14.287-61.524 26.242-90.099s26.68-54.817 44.175-78.727c8.164-1.749 16.62-2.916 25.368-3.499s17.786-0.292 27.117 0.875zM266.328 142.122c-10.497 14.579-19.682 30.47-27.554 47.674s-15.016 36.593-21.431 58.17c-29.741 22.743-55.109 47.674-76.103 74.791s-36.739 55.255-47.236 84.413c-10.497 29.158-15.454 58.025-14.871 86.6s7.581 55.4 20.994 80.476c17.495 33.24 43.446 58.316 77.852 75.228s72.895 25.076 115.466 24.493c14.579 18.078 30.47 34.407 47.674 48.986s35.136 27.409 53.797 38.489c-34.407 0-67.647-3.936-99.721-11.809s-61.669-19.682-88.786-35.427c-27.117-15.745-51.027-35.281-71.729-58.608s-37.177-49.86-49.423-79.602c-15.745-38.489-22.743-78.144-20.994-118.965s10.934-80.622 27.554-119.403c16.62-38.78 39.801-74.936 69.542-108.468s64.731-62.544 104.969-87.037zM659.963 296.077c1.166 1.166 2.333 2.478 3.499 3.936s2.333 2.77 3.499 3.936c23.91 31.491 47.819 65.46 71.729 101.908s42.279 73.624 55.109 111.53c-5.248 10.497-10.934 20.702-17.058 30.616s-12.975 19.828-20.556 29.741c-1.4 1.866-4.292 5.132-8.677 9.797l-3.569 3.761c-6.415 6.706-10.789 10.934-13.121 12.684-24.493 19.828-51.464 35.281-80.914 46.361s-60.503 16.62-93.16 16.62c-20.994 0-41.113-2.187-60.357-6.561s-37.906-10.643-55.984-18.807c6.998-2.916 13.704-6.123 20.119-9.622s12.83-6.998 19.244-10.497c34.407-19.828 64.585-42.717 90.536-68.667s46.799-53.505 62.544-82.663c15.745-29.158 26.097-58.754 31.053-88.786s3.645-58.462-3.936-85.288zM391.417 142.997c16.912 2.333 33.386 5.977 49.423 10.934s31.345 11.517 45.924 19.682c-29.158 6.998-55.838 19.244-80.039 36.739s-44.758 38.635-61.669 63.419c-16.912 24.784-29.887 52.485-38.926 83.101s-12.684 62.836-10.934 96.659c0 4.665 0.292 9.185 0.875 13.559s1.166 8.893 1.749 13.559c-5.832-14.579-10.351-29.595-13.559-45.049s-5.394-31.637-6.561-48.548c-1.166-25.076 0.729-49.569 5.686-73.478s12.392-46.361 22.306-67.355c9.914-20.994 22.16-40.238 36.739-57.733s30.908-32.657 48.986-45.487zM630.222 10.036c43.154 11.663 82.809 31.345 118.965 59.045s67.938 62.398 95.347 104.095c27.409 41.696 48.111 88.786 62.107 141.271 2.916 11.663 5.54 23.181 7.873 34.552s4.082 22.598 5.248 33.678c-2.916-6.998-6.269-13.85-10.060-20.556s-7.435-13.559-10.934-20.556c-9.331-16.912-19.536-33.823-30.616-50.735s-23.035-33.24-35.864-48.986c-14.579-22.16-31.928-43.591-52.047-64.294s-40.53-39.801-61.232-57.296c-20.702-17.495-40.676-32.803-59.92-45.924s-35.573-23.181-48.986-30.179c-16.912-8.164-35.573-15.6-55.984-22.306s-38.78-12.101-55.109-16.183c44.32-8.747 88.058-7.29 131.212 4.374z" />
<glyph unicode="&#xe93d;" glyph-name="Warning" data-tags="Warning" d="M509.375 0.022c60.080-0.583 117.244 10.645 171.492 33.686s101.933 54.393 143.056 94.058c41.123 39.665 73.934 86.183 98.433 139.556s37.040 110.099 37.623 170.179c0.583 62.997-10.499 122.202-33.248 177.616s-54.102 103.828-94.058 145.243c-39.956 41.415-87.204 74.226-141.743 98.433s-113.307 36.602-176.304 37.186c-60.080 0.583-117.244-10.645-171.492-33.686s-101.933-54.393-143.056-94.058c-41.123-39.665-73.934-86.183-98.433-139.556s-37.040-110.099-37.623-170.179c-0.583-62.997 10.499-122.202 33.248-177.616s54.102-103.828 94.058-145.243c39.956-41.415 87.204-74.226 141.743-98.433s113.307-36.602 176.304-37.186zM567.997 392.003h-111.995c0 0-0.729 1.167-2.187 3.5s-2.479 6.416-3.062 12.249c-1.167 25.665-2.771 56.581-4.812 92.745s-3.791 70.872-5.25 104.12c-1.458 33.248-2.771 61.83-3.937 85.746s-1.75 36.457-1.75 37.623v0h154.867c-0.583-8.166-1.604-25.665-3.062-52.497s-3.062-56.581-4.812-89.246c-1.75-32.665-3.354-64.893-4.812-96.683s-2.771-57.018-3.937-75.684c0-8.166-0.875-13.853-2.625-17.062s-2.625-4.812-2.625-4.812v0zM514.625 168.014c-29.165-0.583-52.643 6.271-70.434 20.561s-27.27 33.978-28.436 59.060c-1.167 26.249 6.416 47.248 22.749 62.997s39.373 24.207 69.122 25.374c28.582 1.167 51.768-5.25 69.559-19.249s27.27-33.248 28.436-57.747c1.167-27.999-6.125-49.873-21.874-65.622s-38.79-24.207-69.122-25.374z" />
<glyph unicode="&#xe93e;" glyph-name="2-Step-Verification" data-tags="2-Step-Verification" d="M522.762 861.982c102.234-59.188 196.398-86.092 312.084-94.163 10.762-2.69 18.833-10.762 18.833-24.213v-295.942c0-239.444-158.732-295.942-328.226-411.628-8.071-5.381-18.833-5.381-24.213 0-169.494 115.686-330.917 172.184-330.917 411.628v295.942c0 13.452 8.071 21.523 21.523 24.213 112.996 8.071 209.85 34.975 309.394 94.163 8.071 2.69 16.142 2.69 21.523 0zM654.629 596.571l-196.114-142.629-89.143 53.486-35.657-35.657 124.8-142.629 231.771 231.771-35.657 35.657z" />
<glyph unicode="&#xe93f;" glyph-name="Slider" data-tags="Slider" d="M761.181 689.743c45.456 0 82.648-37.191 82.648-82.647v0-318.192c0-45.456-37.192-82.647-82.648-82.647v0h-497.537c-45.456 0-82.647 37.191-82.647 82.647v0 318.192c0 45.456 37.191 82.647 82.647 82.647v0zM652.086 407.916h-280.174c-6.612 0-11.571-4.959-11.571-11.571v0-19.009c0-6.612 4.959-11.571 11.571-11.571v0h280.174c6.612 0 11.571 4.959 11.571 11.571v0 19.009c0 6.612-4.959 11.571-11.571 11.571v0zM934.741 517.837c4.132 3.306 9.918 3.306 14.050 0v0l71.903-64.465c1.653-1.653 3.306-4.132 3.306-6.612s-1.653-4.959-3.306-6.612v0l-72.73-62.812c-1.653-1.653-4.132-2.479-6.612-2.479s-4.959 0.826-6.612 2.479v0l-15.703 14.050c-2.479 1.653-3.306 4.132-3.306 6.612s1.653 4.959 3.306 6.612v0l47.935 42.977-47.935 42.977c-2.479 1.653-3.306 4.132-3.306 6.612s1.653 4.959 3.306 6.612v0zM75.209 519.492c4.132 3.306 9.917 3.306 14.050 0v0l15.703-14.050c2.479-1.653 3.306-4.132 3.306-6.612s-0.826-4.959-4.132-8.265v0l-47.935-42.977 47.935-42.977c2.479-1.653 3.306-4.132 3.306-6.612s-1.653-4.96-3.306-6.613v0l-15.703-14.050c-1.653-1.653-4.132-2.479-6.612-2.479s-4.959 0.826-6.612 2.479v0l-71.903 64.466c-2.479 1.653-3.306 4.132-3.306 6.612s1.653 4.959 3.306 6.612v0zM733.907 515.358h-442.99c-10.744 0-19.835-9.091-19.835-19.835v0-28.927c0-10.744 9.091-19.835 19.835-19.835v0h442.99c10.744 0 19.835 9.091 19.835 19.835v0 28.927c0 10.744-9.091 19.835-19.835 19.835v0z" />
<glyph unicode="&#xe981;" glyph-name="Bike" data-tags="Bike" d="M831.116 411.674c106.382 0 192.886-86.646 192.886-193.24 0-106.484-86.504-193.12-192.886-193.12-106.495 0-193.001 86.636-193.001 193.12 0 106.594 86.507 193.24 193.001 193.24zM193.002 411.674c106.382 0 192.882-86.646 192.882-193.24 0-106.484-86.501-193.12-192.882-193.12-106.494 0-193.004 86.636-193.004 193.12 0 106.594 86.51 193.24 193.004 193.24zM710.611 942.162c57.050 0 103.524-46.474 103.524-103.524s-46.455-103.643-103.524-103.643c-8.359 0-16.49 1.010-24.283 2.902v0l69.116-95.896h150.758c32.046 0 58.37-26.354 58.37-58.489 0-32.047-26.287-58.486-58.37-58.486v0h-205.574c-3.911 0-7.573 1.921-9.797 5.139v0l-74.541 107.892-140.945-96.439 124.997-88.856c3.771-2.68 5.648-7.301 4.815-11.851v0l-48.484-264.629-1.762-7.087c-8.71-27.541-36.832-45.385-66-40.158-31.6 5.664-52.824 36.309-47.169 67.882v0l33.361 186.734-171.475 101.199c-0.105 0.062-0.209 0.125-0.312 0.191-10.406 6.577-12.72 9.165-21.34 20.347v0l-5.611 7.96c-27.473 43.451-17.882 102.031 23.384 134.183v0l6.363 4.988c24.969 19.782 68.369 55.9 111.619 89.878 23.59 18.533 47.174 36.462 67.977 50.94 20.794 14.471 38.255 25.464 52.354 30.552 0.012 0.002 0.024 0.005 0.024 0.007l9.543 2.866c22.146 5.3 43.356 1.071 61.631-8.671-1.338 6.633-2.043 13.49-2.043 20.506 0 57.050 46.462 103.524 103.409 103.524z" />
<glyph unicode="&#xe992;" glyph-name="Columns" data-tags="Columns" d="M249.6 817.2v-738.4h-128v738.4h128zM467.2 817.2v-738.4h-128v738.4h128zM684.8 817.2v-738.4h-128v738.4h128zM902.4 817.2v-738.4h-128v738.4h128z" />
<glyph unicode="&#xe993;" glyph-name="GPTAi" data-tags="GPT Ai" d="M409.919 184.994l329.81-142.572h-659.627l329.81 142.572zM409.919 737.754l400.483-702.805-400.483 173.731-400.483-173.731 400.483 702.805zM809.819 784.196l102.953 103.537 101.792-102.365-102.953-103.537-101.792 102.365zM810.403 753.518l102.088-97.994 102.088 97.994v-718.601h-204.17v718.601z" />
<glyph unicode="&#xe994;" glyph-name="AdBock-Detector" data-tags="AdBock Detector" d="M463.97 833.512c-12.177-12.091-17.25-21.663-17.25-32.747v-15.114l-25.368 3.023c-28.92 3.527-45.156-4.534-60.884-30.228-9.133-14.61-10.148-25.693-10.148-118.392v-102.774l-17.25 10.58c-23.847 14.61-41.605 13.602-59.362-4.534l-15.221-15.114 1.522-134.514c2.537-151.641 4.566-163.731 39.068-216.631 23.846-36.779 60.884-67.007 100.459-82.621 26.89-10.583 39.068-12.094 137.499-13.605 105.532-1.511 108.067-1.511 134.452 10.578 30.949 14.107 55.808 37.282 71.029 65.998 11.165 20.152 11.165 25.192 12.686 272.553 1.014 165.246 0 257.944-3.554 270.035-3.042 9.572-11.16 23.175-18.77 30.228-10.653 10.076-17.756 12.091-42.62 11.587l-29.428-0.504-2.535 25.189c-2.028 20.656-5.075 28.213-18.775 40.304-15.221 13.602-19.277 14.61-44.648 12.595-26.887-2.519-29.428-1.511-45.155 14.61-14.714 14.61-20.291 16.625-42.615 16.625-22.834 0-27.907-2.015-43.129-17.129zM524.855 814.871l13.193-10.076 1.014-152.146 1.521-152.146h25.366l2.54 138.543c1.521 76.073 4.563 141.567 6.596 145.093 7.103 10.076 43.127 7.557 49.212-3.527 3.047-6.046 5.075-63.982 5.075-153.657 0-78.592 1.521-146.604 3.042-151.139 3.554-8.564 19.789-11.084 24.864-3.526 1.521 2.519 3.042 46.349 3.042 97.232 0 97.233 4.061 133.506 15.221 140.559 13.193 8.565 37.038 3.023 43.634-10.58 8.117-15.618 9.639-486.162 1.521-513.87-6.596-23.681-31.963-53.402-56.822-65.998-18.775-9.574-27.399-10.076-127.354-8.565-97.92 1.511-109.589 3.022-131.914 12.596-52.259 24.183-95.386 79.599-110.099 142.068-7.103 28.717-9.133 246.861-2.537 256.937 8.625 14.61 37.546-4.030 52.766-33.25 3.044-6.046 5.581-37.279 5.581-73.049 0-65.496 3.044-76.576 18.265-73.554 9.133 1.511 9.64 11.080 12.177 202.021 2.537 191.442 3.044 201.014 12.177 208.067 12.684 9.068 28.92 9.068 41.604 0 9.133-6.549 9.64-15.114 11.162-136.529 1.522-111.842 2.537-129.475 9.64-131.994 19.28-7.557 21.31 8.564 21.817 168.771 0 84.134 1.522 155.673 3.044 158.192 3.044 4.534 20.297 13.099 27.907 13.603 2.028 0.504 9.131-4.030 16.742-10.076zM463.761 714.725c-100.293-22.541-179.13-97.678-204.578-195.356-9.98-39.071-9.48-108.7 0.499-143.263 8.981-30.556 28.94-72.629 40.916-86.155 6.986-8.013 6.986-9.519 0-16.528-6.486-6.512-9.98-7.014-18.961-2.003-10.479 5.508-17.464 0-109.275-92.17l-97.798-98.18v-25.043c0-21.539 2.495-27.051 16.466-41.074 13.971-14.028 19.46-16.533 40.916-16.533h24.948l97.798 98.18c86.821 87.159 97.299 99.179 92.31 108.196-3.992 7.516-3.493 12.522 1.497 19.536 6.486 8.515 7.983 9.017 16.466 1.501 13.472-12.522 55.385-32.559 85.823-41.571 34.429-10.021 103.788-10.523 142.705-0.502 94.805 25.043 171.147 104.692 194.6 203.368 45.404 194.355-129.735 371.177-324.332 327.598zM585.012 682.667c45.404-12.022 76.343-30.055 110.771-65.62 59.874-61.111 81.831-140.756 62.37-224.909-20.455-87.159-91.812-159.292-179.627-181.333-13.471-3.504-43.411-5.006-71.854-3.504-42.911 2.003-52.89 4.509-86.321 20.54-51.893 25.043-91.811 65.118-116.759 117.213-17.464 35.562-18.961 43.078-20.957 91.663-1.497 44.583-0.499 57.607 8.982 85.157 41.913 125.228 167.155 194.354 293.396 160.793zM326.045 243.364c-2.994-3.504-7.485-5.508-10.478-4.007-2.495 1.506-1.996 6.010 1.497 10.021 2.994 3.504 7.485 5.508 10.479 4.007 2.494-1.506 1.996-6.010-1.497-10.021zM323.525 914.532h391.863l277.216-273.236v-386.593l-277.216-273.234h-391.863l-277.215 273.234v386.593l277.215 273.236zM333.716 889.677l-262.551-258.782v-365.794l262.55-258.779h371.483l262.552 258.779v365.794l-262.552 258.782h-371.482z" />
</font>
</defs>
</svg>
